Nuovi:
Hawk Legend » Download film » HEVC 1080p » Il re vichingo (2018) BDRip 1080p HEVC ITA DTS ITA ENG AC3 PirateMKV
Il re vichingo (2018) BDRip 1080p HEVC ITA DTS ITA ENG AC3 PirateMKV

Il re vichingo (2018) BDRip 1080p HEVC ITA DTS ITA ENG AC3 PirateMKV

/ Viste:  21 / Commenti: 0
DASOLO FACEBOOK OFFERTA PREMIUM EASYBYTEZ

Il re vichingo (2018) BDRip 1080p HEVC ITA DTS ITA ENG AC3 PirateMKV



Titolo: The Pagan King
Nazione: UK, Latvia
Anno: 2018
Genere: Action, Drama, History, War
Durata: 114 min
Regia: Aigars Grauba
Voti: IMDb (6.2/10)
Cast: Edvin Endre, James Bloor, Dainis Grube, Gints Andzans


Europa del Nord, Tredicesimo Secolo. Il crociato Max von Buxhoveden vuole distruggere le credenze pagane del popolo di Senigallia incoraggiando il dissenso. Il vecchio regnante delle ultime terre pagane libere si trova sul letto di morte e senza un erede al trono. Max vuole conquistare il trono e regnare sulla tribù del vecchio re, il quale, con il suo ultimo respiro passa inaspettatamente il suo anello del potere al nipote Namejs. Il giovane, cresciuto tra preti pagani e pronto a difendere il suo popolo, deve trovare la forza dentro di sé per unire il suo popolo contro le violente crociate che minacciano la loro libertà.

Nome Versione: PirateMKV
Fonte Video: Blu-ray
Fonte Audio: Blu-ray
Tracce Audio: ITA DTS ITA ENG AC3
Tracce Sub: ITA





[spoiler]


[/spoiler]



[spoiler]
General
Unique ID : 270251297373950993947615532679382018208 (0xCB5081B1564B38FF8B4F13D26DC1A8A0)
Complete name : C:\Users\Administrator\Downloads\News\Il Re Vichingo 2018\Il re vichingo (2018) BDRip 1080p HEVC ITA DTS ITA ENG AC3 PirateMKV.mkv
Format : Matroska
Format version : Version 4
File size : 7.81 GiB
Duration : 1 h 54 min
Overall bit rate : 9 770 kb/s
Movie name : Il re vichingo (2018) - PirateMKV
Encoded date : UTC 2020-01-15 18:13:10
Writing application : mkvmerge v42.0.0 ('Overtime') 64-bit
Writing library : libebml v1.3.10 + libmatroska v1.5.2 / Lavf58.35.101
Copyright : Encoded by PirateMKV

Video
ID : 1
Format : HEVC
Format/Info : High Efficiency Video Coding
Format profile : [email protected]@High
Codec ID : V_MPEGH/ISO/HEVC
Duration : 1 h 54 min
Bit rate : 6 978 kb/s
Width : 1 920 pixels
Height : 804 pixels
Display aspect ratio : 2.40:1
Frame rate mode : Constant
Frame rate : 24.000 FPS
Color space : YUV
Chroma subsampling : 4:2:0
Bit depth : 8 bits
Bits/(Pixel*Frame) : 0.188
Stream size : 5.58 GiB (71%)
Writing library : x265 3.2+15-04db2bfee5d6:[Windows][GCC 9.2.1][64 bit] 8bit+10bit
Encoding settings : cpuid=1111039 / frame-threads=3 / numa-pools=8 / wpp / no-pmode / no-pme / no-psnr / no-ssim / log-level=2 / input-csp=1 / input-res=1920x804 / interlace=0 / total-frames=0 / level-idc=40 / high-tier=1 / uhd-bd=0 / ref=5 / no-allow-non-conformance / no-repeat-headers / annexb / no-aud / no-hrd / info / hash=0 / no-temporal-layers / open-gop / min-keyint=24 / keyint=250 / gop-lookahead=0 / bframes=8 / b-adapt=2 / b-pyramid / bframe-bias=0 / rc-lookahead=40 / lookahead-slices=0 / scenecut=40 / radl=0 / no-splice / no-intra-refresh / ctu=64 / min-cu-size=8 / no-rect / no-amp / max-tu-size=32 / tu-inter-depth=3 / tu-intra-depth=3 / limit-tu=0 / rdoq-level=0 / dynamic-rd=0.00 / no-ssim-rd / signhide / no-tskip / nr-intra=0 / nr-inter=0 / no-constrained-intra / strong-intra-smoothing / max-merge=3 / limit-refs=3 / limit-modes / me=2 / subme=4 / merange=57 / temporal-mvp / no-frame-dup / no-hme / weightp / weightb / no-analyze-src-pics / deblock=-1:-1 / sao / no-sao-non-deblock / rd=4 / selective-sao=4 / no-early-skip / rskip / fast-intra / no-tskip-fast / no-cu-lossless / b-intra / no-splitrd-skip / rdpenalty=0 / psy-rd=1.00 / psy-rdoq=0.00 / no-rd-refine / no-lossless / cbqpoffs=0 / crqpoffs=0 / rc=crf / crf=20.6 / qcomp=0.60 / qpstep=4 / stats-write=0 / stats-read=0 / vbv-maxrate=30000 / vbv-bufsize=30000 / vbv-init=0.9 / crf-max=0.0 / crf-min=0.0 / ipratio=1.40 / pbratio=1.30 / aq-mode=3 / aq-strength=2.00 / no-cutree / zone-count=0 / no-strict-cbr / qg-size=32 / no-rc-grain / qpmax=69 / qpmin=0 / no-const-vbv / sar=1 / overscan=0 / videoformat=5 / range=0 / colorprim=2 / transfer=2 / colormatrix=1 / chromaloc=0 / display-window=0 / cll=0,0 / min-luma=0 / max-luma=255 / log2-max-poc-lsb=8 / vui-timing-info / vui-hrd-info / slices=1 / no-opt-qp-pps / no-opt-ref-list-length-pps / no-multi-pass-opt-rps / scenecut-bias=0.05 / no-opt-cu-delta-qp / no-aq-motion / no-hdr / no-hdr-opt / no-dhdr10-opt / no-idr-recovery-sei / analysis-reuse-level=5 / scale-factor=0 / refine-intra=0 / refine-inter=0 / refine-mv=1 / refine-ctu-distortion=0 / no-limit-sao / ctu-info=0 / no-lowpass-dct / refine-analysis-type=0 / copy-pic=1 / max-ausize-factor=1.0 / no-dynamic-refine / no-single-sei / no-hevc-aq / no-svt / no-field / qp-adaptation-range=1.00 / no-scenecut-aware-qp
Language : English
Default : Yes
Forced : No
Color range : Limited
Matrix coefficients : BT.709

Audio #1
ID : 2
Format : DTS
Format/Info : Digital Theater Systems
Codec ID : A_DTS
Duration : 1 h 54 min
Bit rate mode : Constant
Bit rate : 1 509 kb/s
Channel(s) : 6 channels
Channel layout : C L R Ls Rs LFE
Sampling rate : 48.0 kHz
Frame rate : 93.750 FPS (512 SPF)
Bit depth : 24 bits
Compression mode : Lossy
Stream size : 1.21 GiB (15%)
Title : DTS 5.1
Language : Italian
Default : Yes
Forced : No

Audio #2
ID : 3
Format : AC-3
Format/Info : Audio Coding 3
Commercial name : Dolby Digital
Codec ID : A_AC3
Duration : 1 h 54 min
Bit rate mode : Constant
Bit rate : 640 kb/s
Channel(s) : 6 channels
Channel layout : L R C LFE Ls Rs
Sampling rate : 48.0 kHz
Frame rate : 31.250 FPS (1536 SPF)
Bit depth : 16 bits
Compression mode : Lossy
Stream size : 524 MiB (7%)
Title : AC3 5.1
Language : Italian
Service kind : Complete Main
Default : No
Forced : No

Audio #3
ID : 4
Format : AC-3
Format/Info : Audio Coding 3
Commercial name : Dolby Digital
Codec ID : A_AC3
Duration : 1 h 54 min
Bit rate mode : Constant
Bit rate : 640 kb/s
Channel(s) : 6 channels
Channel layout : L R C LFE Ls Rs
Sampling rate : 48.0 kHz
Frame rate : 31.250 FPS (1536 SPF)
Bit depth : 16 bits
Compression mode : Lossy
Stream size : 524 MiB (7%)
Title : AC3 5.1
Language : English
Service kind : Complete Main
Default : No
Forced : No

Text
ID : 5
Format : UTF-8
Codec ID : S_TEXT/UTF8
Codec ID/Info : UTF-8 Plain Text
Duration : 1 h 46 min
Bit rate : 36 b/s
Count of elements : 872
Stream size : 28.7 KiB (0%)
Title : Normal
Language : Italian
Default : No
Forced : No

Menu
00:00:00.000 : en:Chapter 01
00:09:37.917 : en:Chapter 02
00:19:18.042 : en:Chapter 03
00:28:47.958 : en:Chapter 04
00:38:44.625 : en:Chapter 05
00:48:39.333 : en:Chapter 06
00:57:30.000 : en:Chapter 07
01:07:28.667 : en:Chapter 08
01:17:17.000 : en:Chapter 09
01:26:57.667 : en:Chapter 10
01:36:21.000 : en:Chapter 11
01:49:12.667 : en:Chapter 12
[/spoiler]





[spoiler]
Attenzione! Non sei autorizzato a visualizzare questo testo / Solo gli utenti registrati possono visualizzare questo testo!


Password Archivi: pmkv


Abbonamento Premium Easybytez (Offerta) Per gli utente di Hawk Legend Download:
Abbonamento Premium Easybytez (Offerta)  per gli utente di Hawk Legend:

Stai Scaricando Il re vichingo (2018) BDRip 1080p HEVC ITA DTS ITA ENG AC3 PirateMKV Da leggenditaly.com (Hawk Legend Download)

  • Mi piace
  • 0
  • Commenti 0
    Ancora nessun commento. Commenta per primo!
    Informazione

    Gli utenti del Visitatori non sono autorizzati a commentare questa pubblicazione.